<?xml version="1.0" standalone="no"?>
<!DOCTYPE svg PUBLIC "-//W3C//DTD SVG 1.1//EN" "http://www.w3.org/Graphics/SVG/1.1/DTD/svg11.dtd" >
<svg xmlns="http://www.w3.org/2000/svg">
<metadata></metadata>
<defs>
<font id="clanotbook" horiz-adv-x="1339" >
<font-face units-per-em="2048" ascent="1612" descent="-436" />
<missing-glyph horiz-adv-x="655" />
<glyph unicode="&#xfb01;" horiz-adv-x="1413" d="M80 1110v98h196v60q0 169 94.5 264.5t291.5 95.5q90 0 153 -18l-4 -90q-66 16 -127 16q-285 0 -285 -270v-58h760v-1208h-127v1110h-633v-1110h-123v1110h-196zM999 1546q0 41 25.5 63.5t71.5 22.5q96 0 96 -86t-96 -86q-48 0 -72.5 19.5t-24.5 66.5z" />
<glyph unicode="&#xfb02;" horiz-adv-x="1351" d="M80 1110v98h194v64q0 366 486 366q84 0 200 -11t150 -13v-1614h-123v1530q-152 16 -227 16q-193 0 -277 -69.5t-84 -206.5v-62h287v-98h-287v-1110h-125v1110h-194z" />
<glyph horiz-adv-x="0" />
<glyph horiz-adv-x="0" />
<glyph horiz-adv-x="682" />
<glyph unicode="&#xd;" horiz-adv-x="655" />
<glyph unicode=" "  horiz-adv-x="655" />
<glyph unicode="&#x09;" horiz-adv-x="655" />
<glyph unicode="&#xa0;" horiz-adv-x="655" />
<glyph unicode="!" horiz-adv-x="620" d="M217 68q0 43 24.5 66.5t69.5 23.5q95 0 95 -90q0 -88 -95 -88q-94 0 -94 88zM240 1536h135l-23 -1145h-90z" />
<glyph unicode="&#x22;" horiz-adv-x="739" d="M135 1581h137l-32 -455h-84zM475 1581h137l-32 -455h-84z" />
<glyph unicode="#" horiz-adv-x="1327" d="M133 485v105h264l62 377h-324v104h338l66 465h98l-64 -465h267l65 465h96l-65 -465h258v-104h-272l-60 -377h330v-105h-342l-70 -485h-96l68 485h-269l-67 -485h-101l68 485h-250zM498 590h268l57 377h-264z" />
<glyph unicode="$" horiz-adv-x="1239" d="M133 82l17 131q180 -107 376 -121l52 653q-59 21 -95.5 35t-88.5 37.5t-84.5 45t-70 54t-58 67t-34.5 81.5t-14 100q0 187 133 290t377 106l10 135l84 -6l-10 -131q93 -7 174.5 -28t132.5 -48l-12 -121q-149 59 -305 70l-47 -570q55 -19 94 -34.5t88.5 -39.5t84 -48 t70 -58.5t57 -73t35 -90t13.5 -110.5q0 -223 -126 -328.5t-390 -108.5l-12 -145l-78 6l10 141q-229 16 -383 109zM252 1171q0 -46 19 -85t46.5 -65.5t77 -52.5t90 -41.5t105.5 -37.5l43 547q-190 -1 -285.5 -73t-95.5 -192zM606 90q400 3 400 301q-1 53 -20.5 98t-49 77 t-78.5 61t-93 48t-108 42z" />
<glyph unicode="%" horiz-adv-x="1423" d="M117 1208q0 192 64.5 275.5t215.5 83.5q141 0 209 -82.5t68 -276.5q0 -187 -68.5 -271.5t-210.5 -84.5q-145 0 -211.5 84t-66.5 272zM207 1210q0 -153 44.5 -211.5t145.5 -58.5q98 0 141.5 58t43.5 212t-43.5 212.5t-141.5 58.5q-101 0 -145.5 -58.5t-44.5 -212.5z M268 70l776 1456l80 -56l-776 -1456zM750 342q0 190 65 275t215 85q141 0 209 -83t68 -277q0 -187 -68 -271.5t-209 -84.5q-146 0 -213 83.5t-67 272.5zM844 342q0 -153 43.5 -210.5t142.5 -57.5t143 57.5t44 210.5q0 105 -21 164.5t-60.5 82.5t-105.5 23q-99 0 -142.5 -58 t-43.5 -212z" />
<glyph unicode="&#x26;" horiz-adv-x="1390" d="M121 369q0 80 23.5 152.5t68 134t92.5 109.5t113 99q-137 215 -137 365q0 149 86 240.5t260 91.5q151 0 233 -70t82 -186q0 -53 -21.5 -105.5t-44.5 -88t-80 -87.5t-85.5 -74.5t-102.5 -77.5q-25 -19 -37 -28q166 -230 406 -447q114 179 147 371l107 2 q-10 -95 -53.5 -217t-114.5 -234q157 -135 303 -227l-45 -112q-166 104 -328 243q-206 -248 -475 -248q-104 0 -182.5 31.5t-124 87t-68 124.5t-22.5 151zM246 375q0 -130 80.5 -204.5t210.5 -74.5q201 0 368 203q-254 233 -424 471q-111 -91 -173 -185t-62 -210zM397 1229 q0 -111 115 -295q149 109 199 157q108 104 110 205q0 75 -52.5 118.5t-145.5 43.5q-99 0 -162.5 -61.5t-63.5 -167.5z" />
<glyph unicode="'" horiz-adv-x="399" d="M131 1581h137l-32 -455h-84z" />
<glyph unicode="(" horiz-adv-x="649" d="M211 688q0 288 81 520t238 432l113 -8q-313 -421 -313 -944q0 -511 311 -944l-111 -8q-149 177 -234 424.5t-85 527.5z" />
<glyph unicode=")" horiz-adv-x="649" d="M6 1632l113 8q156 -199 236.5 -431t80.5 -521q0 -281 -84 -528.5t-233 -423.5l-111 8q311 428 311 944q0 519 -313 944z" />
<glyph unicode="*" horiz-adv-x="714" d="M61 1380l27 74l229 -63l7 239h71l6 -239l228 63l24 -74l-229 -71l147 -201l-57 -47l-154 201l-159 -201l-58 45l150 203z" />
<glyph unicode="+" horiz-adv-x="1216" d="M162 639v119h385v397h112v-397h398v-119h-398v-389h-112v389h-385z" />
<glyph unicode="," horiz-adv-x="495" d="M152 68q0 46 23 73t71 27q96 0 96 -102q0 -44 -42 -158.5t-85 -194.5l-47 13l53 254q-29 8 -49 32.5t-20 55.5z" />
<glyph unicode="-" horiz-adv-x="847" d="M164 647v98h518v-98h-518z" />
<glyph unicode="." horiz-adv-x="495" d="M152 76q0 94 98 94q94 0 94 -94q0 -96 -94 -96q-51 0 -74.5 22.5t-23.5 73.5z" />
<glyph unicode="/" horiz-adv-x="880" d="M43 -264l707 1900h108l-708 -1900h-107z" />
<glyph unicode="0" d="M133 768q0 293 56.5 465.5t172 247.5t310.5 75q192 0 307 -75t171 -247.5t56 -465.5q0 -290 -56 -463t-172 -250.5t-308 -77.5q-193 0 -309 77.5t-172 250.5t-56 463zM260 770q0 -160 16.5 -275.5t47.5 -192t82 -122t114.5 -64t151.5 -18.5q87 0 149.5 18.5t113 63.5 t80.5 122t46 192.5t16 275.5q0 159 -16 273t-46 190t-80.5 120t-113 62.5t-149.5 18.5q-110 0 -183.5 -29.5t-127 -104t-77.5 -204t-24 -326.5z" />
<glyph unicode="1" d="M319 1241l426 301h78v-1436h289v-106h-723v106h299v1088l4 166l-4 2l-352 -240z" />
<glyph unicode="2" d="M188 0v94q49 45 135.5 124t136 125.5t125 118t120.5 120t102 113t90 115t64 108t45 111t14 104.5q0 132 -93 214.5t-282 82.5q-111 0 -217 -43.5t-192 -116.5l-39 110q90 78 211 125t256 47q234 0 360.5 -107t126.5 -300q0 -82 -25 -163.5t-78 -165.5t-115 -160.5 t-159 -169.5t-185 -170.5t-216 -184.5v-6h794l-4 -125h-975z" />
<glyph unicode="3" d="M178 109l31 112q185 -121 426 -121q209 0 314.5 99.5t105.5 265.5q0 163 -124.5 235t-410.5 72v102q259 0 376.5 75t117.5 222q0 130 -97.5 195.5t-269.5 65.5q-229 0 -416 -156l-38 104q83 76 201.5 124t258.5 48q227 0 354.5 -95.5t127.5 -276.5q0 -143 -77.5 -229 t-211.5 -122v-4q166 -33 250 -122t84 -246q0 -221 -135.5 -347t-407.5 -126q-264 0 -459 125z" />
<glyph unicode="4" d="M152 446l696 1090h164v-1059h213l-6 -119h-207v-358h-121v358h-727zM301 483l2 -6h590l6 785l6 165l-4 3l-88 -144l-422 -670z" />
<glyph unicode="5" d="M205 109l28 116q94 -62 187 -93.5t209 -31.5q401 0 401 410q0 177 -93.5 257.5t-291.5 80.5q-109 0 -209 -25t-172 -67l-55 51l61 729h815l7 -123h-721l-45 -520q162 70 350 70q242 0 361.5 -109.5t119.5 -333.5q0 -265 -130 -400.5t-388 -135.5q-254 0 -434 125z" />
<glyph unicode="6" d="M150 715q0 427 156.5 632t463.5 205q180 0 330 -61l-15 -119q-146 58 -301 58q-246 0 -373 -151.5t-139 -471.5l7 -4q85 78 197 121t229 43q246 0 360.5 -109t114.5 -336q0 -266 -127.5 -402t-378.5 -136q-132 0 -227 37.5t-163 122.5t-101 226.5t-33 344.5zM281 682 q4 -315 96 -448.5t297 -133.5q377 0 377 424q0 174 -88.5 255t-280.5 81q-106 0 -220 -49t-181 -129z" />
<glyph unicode="7" d="M158 1405l6 131h1040v-115l-688 -1421h-151l708 1405h-915z" />
<glyph unicode="8" d="M147 412q0 140 85 242t231 161v6q-121 49 -187.5 130.5t-66.5 219.5q0 381 463 381t463 -381q0 -124 -68.5 -218t-196.5 -150v-4q72 -24 125 -53.5t100 -74t72 -110t25 -149.5q0 -430 -520 -430q-270 0 -397.5 106t-127.5 324zM272 412q0 -161 94.5 -239.5t309.5 -78.5 q185 0 288 77t103 235q0 36 -7.5 68.5t-19.5 57.5t-33 48t-41.5 40t-52 33.5t-56.5 27.5t-63.5 24.5t-65.5 22t-69.5 21.5t-68.5 21q-71 -30 -124.5 -62.5t-99.5 -75.5t-70 -98.5t-24 -121.5zM328 1167q0 -43 13 -80.5t27 -63t51.5 -51.5t57.5 -39t76.5 -33.5t76 -26.5 t86.5 -25q18 -5 27 -8q144 60 209.5 136.5t65.5 184.5q0 281 -348 281q-342 0 -342 -275z" />
<glyph unicode="9" d="M145 1090q0 221 124 341.5t372 120.5q258 0 397.5 -176t139.5 -522q0 -234 -37 -401t-113 -270.5t-184.5 -151t-257.5 -47.5q-185 0 -340 67l20 115q149 -64 307 -64q242 0 358 160.5t126 523.5l-4 2q-162 -149 -412 -149q-251 0 -373.5 119t-122.5 332zM270 1096 q0 -166 96 -256t291 -90q260 0 394 157q-8 529 -412 529q-182 0 -275.5 -87t-93.5 -253z" />
<glyph unicode=":" horiz-adv-x="495" d="M152 76q0 94 98 94q94 0 94 -94q0 -96 -94 -96q-51 0 -74.5 22.5t-23.5 73.5zM152 1059q0 94 98 94q94 0 94 -94q0 -96 -94 -96q-51 0 -74.5 22.5t-23.5 73.5z" />
<glyph unicode=";" horiz-adv-x="505" d="M154 68q0 46 23 73t71 27q96 0 96 -102q0 -44 -42 -158.5t-85 -194.5l-47 13l53 254q-29 8 -49 32.5t-20 55.5zM162 1059q0 94 98 94q94 0 94 -94q0 -96 -94 -96q-51 0 -74.5 22.5t-23.5 73.5z" />
<glyph unicode="&#x3c;" horiz-adv-x="1216" d="M190 662v65l838 444v-133l-528 -268l-148 -70v-6l150 -69l526 -260v-129z" />
<glyph unicode="=" horiz-adv-x="1216" d="M160 467v106h899v-106h-899zM160 815v107h899v-107h-899z" />
<glyph unicode="&#x3e;" horiz-adv-x="1216" d="M190 236v129l525 258l151 69v6l-149 70l-527 270v133l838 -444v-65z" />
<glyph unicode="?" horiz-adv-x="1056" d="M86 1386q79 79 197 128t254 49q205 0 308 -91.5t103 -263.5q0 -167 -96 -289t-289 -231l-6 -297h-100l-8 348q95 60 157.5 107.5t114.5 103.5t76 115.5t24 128.5q0 127 -78 188.5t-219 61.5q-210 0 -389 -158zM416 68q0 90 96 90q92 0 92 -90q0 -88 -92 -88 q-50 0 -73 20.5t-23 67.5z" />
<glyph unicode="@" horiz-adv-x="1732" d="M119 694q0 145 32 278.5t97.5 248t158.5 199.5t223 133.5t283 48.5q213 0 373 -99t244 -274t84 -402q0 -281 -102 -425t-269 -144q-87 0 -143.5 44t-71.5 130l-6 2q-45 -81 -116.5 -128.5t-155.5 -47.5q-119 0 -187.5 82.5t-68.5 247.5q0 143 55 271t152 206t210 78 q128 0 185 -94h6l26 79l76 -8l-92 -524q-6 -40 -6 -74q0 -80 37.5 -125t116.5 -45q124 0 197 122t73 353q0 199 -70 353t-212 245t-337 91q-170 0 -306.5 -67t-222.5 -181.5t-131.5 -261.5t-45.5 -314q0 -173 42.5 -319t127 -258.5t221.5 -176t315 -63.5q379 0 582 203 l37 -76q-242 -211 -619 -211q-192 0 -343.5 66t-249 186t-148.5 285t-51 366zM604 588q0 -112 45.5 -169t126.5 -57q84 0 149.5 72.5t82.5 183.5l61 340q-47 84 -156 84q-83 0 -154.5 -63.5t-113 -168t-41.5 -222.5z" />
<glyph unicode="A" horiz-adv-x="1429" d="M51 0l584 1536h160l583 -1536h-151l-146 406h-739l-145 -406h-146zM387 526h651l-268 752l-51 158h-6l-54 -158z" />
<glyph unicode="B" horiz-adv-x="1400" d="M227 0v1536h533q215 0 321.5 -93t106.5 -284q0 -144 -61 -229t-164 -115v-4q290 -60 290 -381q0 -212 -109 -321t-353 -109h-564zM356 119h437q161 0 244 74.5t83 246.5q0 156 -83 230.5t-253 74.5h-428v-626zM358 856h414q287 0 287 281q0 148 -73 213t-230 65h-398 v-559z" />
<glyph unicode="C" horiz-adv-x="1251" d="M143 784q0 403 156.5 590t491.5 187q93 0 194 -21.5t164 -52.5l-19 -125q-151 70 -333 70q-135 0 -228.5 -33t-159 -108.5t-96 -200t-30.5 -306.5q0 -194 31 -326t97 -211t160.5 -113t231.5 -34q182 0 332 80l22 -117q-74 -40 -174 -66t-197 -26q-335 0 -489 194.5 t-154 618.5z" />
<glyph unicode="D" horiz-adv-x="1515" d="M227 0v1536h502q341 0 493 -177.5t152 -584.5q0 -279 -71 -450.5t-210.5 -247.5t-361.5 -76h-504zM362 129h365q132 0 222.5 29.5t156.5 102t96.5 198.5t30.5 315q0 182 -28.5 303t-92.5 194t-156.5 103.5t-230.5 30.5h-363v-1276z" />
<glyph unicode="E" horiz-adv-x="1282" d="M227 0v1536h906l6 -127h-779v-547h674v-114h-674v-621h816l-7 -127h-942z" />
<glyph unicode="F" horiz-adv-x="1218" d="M227 0v1536h906l4 -131h-775v-555h652v-123h-652v-727h-135z" />
<glyph unicode="G" horiz-adv-x="1396" d="M143 762q0 424 161.5 611.5t512.5 187.5q105 0 212 -21t185 -55l-18 -125q-176 76 -373 76q-142 0 -240 -32.5t-167 -109.5t-101 -207t-32 -323q0 -245 54.5 -389.5t168.5 -208.5t305 -64q181 0 319 58v647h121v-746q-84 -41 -199.5 -65.5t-238.5 -24.5 q-350 0 -510 186.5t-160 604.5z" />
<glyph unicode="H" horiz-adv-x="1554" d="M227 0v1536h135v-670h830v670h135v-1536h-135v739h-830v-739h-135z" />
<glyph unicode="I" horiz-adv-x="647" d="M256 0v1536h135v-1536h-135z" />
<glyph unicode="J" horiz-adv-x="1124" d="M82 66l14 124q116 -92 285 -92q181 0 280 99.5t99 294.5v1044h137v-1047q0 -252 -130.5 -385t-371.5 -133q-190 0 -313 95z" />
<glyph unicode="K" horiz-adv-x="1421" d="M227 0v1536h135v-672h259l528 672h168l-574 -725l609 -811h-176l-558 743h-256v-743h-135z" />
<glyph unicode="L" horiz-adv-x="1179" d="M227 0v1536h135v-1405h762l-6 -131h-891z" />
<glyph unicode="M" horiz-adv-x="1865" d="M227 0v1536h160l485 -1194l60 -154h6l57 154l486 1194h157v-1536h-120v1149l4 166l-6 2l-60 -156l-473 -1161h-102l-473 1155l-60 156l-4 -2l2 -166v-1143h-119z" />
<glyph unicode="N" horiz-adv-x="1564" d="M227 0v1536h133l768 -1159l91 -139l4 2l-4 163l-2 1133h120v-1536h-100l-795 1188l-90 139l-4 -2l2 -166v-1159h-123z" />
<glyph unicode="O" horiz-adv-x="1509" d="M143 768q0 428 140.5 610.5t472.5 182.5q333 0 472.5 -182t139.5 -611q0 -430 -139.5 -613.5t-472.5 -183.5q-331 0 -472 184.5t-141 612.5zM283 768q0 -156 17 -267.5t51.5 -189.5t92.5 -123.5t133.5 -65.5t180.5 -20q174 0 274 59t148.5 204t48.5 403 q0 195 -25.5 322.5t-84.5 204t-145 107t-218 30.5q-105 0 -179.5 -19.5t-132.5 -65t-92.5 -122.5t-51.5 -189t-17 -268z" />
<glyph unicode="P" horiz-adv-x="1323" d="M227 0v1536h490q262 0 381 -108t119 -349q0 -234 -119.5 -346t-380.5 -112h-355v-621h-135zM362 737h355q187 0 274.5 76.5t87.5 265.5q0 181 -87 258.5t-275 77.5h-355v-678z" />
<glyph unicode="Q" horiz-adv-x="1509" d="M143 768q0 428 140.5 610.5t472.5 182.5q333 0 472.5 -182t139.5 -611q0 -391 -114.5 -575.5t-379.5 -210.5l-2 -5l138 -94l223 -155l-191 -43l-325 286q-309 10 -441.5 195.5t-132.5 601.5zM283 768q0 -156 17 -267.5t51.5 -189.5t92.5 -123.5t133.5 -65.5t180.5 -20 q174 0 274 59t148.5 204t48.5 403q0 195 -25.5 322.5t-84.5 204t-145 107t-218 30.5q-105 0 -179.5 -19.5t-132.5 -65t-92.5 -122.5t-51.5 -189t-17 -268z" />
<glyph unicode="R" horiz-adv-x="1335" d="M227 0v1536h498q231 0 341 -102t110 -314q0 -367 -328 -405l428 -715h-164l-393 690h-357v-690h-135zM362 801h351q169 0 246 73.5t77 239.5q0 160 -74 230.5t-237 70.5h-363v-614z" />
<glyph unicode="S" horiz-adv-x="1153" d="M119 90l24 127q182 -119 412 -119q181 0 275 83.5t94 234.5q0 66 -27 117t-72.5 84.5t-105 60t-125 49t-130.5 46t-124.5 56t-105 74.5t-72.5 105.5t-27 144.5q0 183 120 295.5t357 112.5q219 0 394 -82l-25 -121q-186 78 -363 78q-179 0 -266.5 -78t-87.5 -197 q0 -62 27 -110.5t73 -79.5t105 -56.5t125 -47.5t131.5 -46t124.5 -57.5t105 -77t73 -110.5t27 -152q0 -214 -128.5 -333.5t-371.5 -119.5t-436 119z" />
<glyph unicode="T" horiz-adv-x="1177" d="M39 1405l4 131h1094l2 -131h-484v-1405h-135v1405h-481z" />
<glyph unicode="U" horiz-adv-x="1517" d="M193 555v981h135v-981q0 -234 106.5 -343.5t325.5 -109.5q217 0 323.5 110.5t106.5 342.5v981h135v-981q0 -584 -565 -584q-567 0 -567 584z" />
<glyph unicode="V" horiz-adv-x="1398" d="M61 1536h150l438 -1249l51 -158h7l51 156l438 1251h141l-559 -1536h-157z" />
<glyph unicode="W" horiz-adv-x="2039" d="M125 1536h139l287 -1241l35 -162h6l37 162l315 1241h156l315 -1239l39 -162h6l33 162l287 1239h135l-375 -1536h-172l-309 1241l-35 164h-6l-37 -164l-311 -1241h-168z" />
<glyph unicode="X" horiz-adv-x="1411" d="M98 0l502 797l-483 739h166l419 -662l416 662h160l-475 -737l512 -799h-160l-453 719l-442 -719h-162z" />
<glyph unicode="Y" horiz-adv-x="1343" d="M61 1536h158l381 -719l74 -147h6l72 147l378 719h152l-539 -997v-539h-137v539z" />
<glyph unicode="Z" horiz-adv-x="1261" d="M113 0v92l770 1178l92 133l-2 4h-834l6 129h994v-106l-764 -1164l-92 -131l2 -6h856l-6 -129h-1022z" />
<glyph unicode="[" horiz-adv-x="638" d="M211 -258v1896h422v-100h-307v-1698h307v-98h-422z" />
<glyph unicode="\" horiz-adv-x="794" d="M43 1636h102l627 -1900h-102z" />
<glyph unicode="]" horiz-adv-x="641" d="M6 -162h309v1700h-309v100h422v-1896h-422v96z" />
<glyph unicode="^" d="M150 948l475 701h92l471 -701h-111l-407 594l-406 -594h-114z" />
<glyph unicode="_" horiz-adv-x="892" d="M68 -100h766v-90h-766v90z" />
<glyph unicode="`" horiz-adv-x="808" d="M240 1653h161l150 -291h-100z" />
<glyph unicode="a" horiz-adv-x="1163" d="M131 360q0 175 109 268t327 93q161 0 301 -53v149q0 168 -72.5 235.5t-236.5 67.5q-193 0 -342 -76l-14 109q174 80 377 80q222 0 317.5 -100t95.5 -334v-799h-94l-14 170l-6 2q-50 -87 -151 -138.5t-226 -51.5q-173 0 -272 92t-99 286zM250 362q0 -274 285 -274 q130 0 231.5 75.5t101.5 164.5v241q-28 21 -105.5 39.5t-176.5 18.5q-336 0 -336 -265z" />
<glyph unicode="b" horiz-adv-x="1286" d="M207 0v1632l125 8v-401l-2 -164l4 -2q64 76 161 117t212 41q110 0 192.5 -32.5t144 -104t93.5 -194t32 -294.5q0 -171 -31.5 -292.5t-94 -195t-149 -107.5t-202.5 -34q-118 0 -216.5 43.5t-156.5 122.5l-6 -2l-24 -141h-82zM332 260q43 -75 133 -125.5t213 -50.5 q68 0 121 14.5t99.5 50.5t77.5 94t48.5 149t17.5 212q0 149 -24 250.5t-74 157.5t-114.5 79t-155.5 23q-110 0 -199.5 -45t-142.5 -125v-684z" />
<glyph unicode="c" horiz-adv-x="1026" d="M117 618q0 312 120 461.5t377 149.5q162 0 301 -68l-10 -114q-129 63 -266 63q-211 0 -302 -115.5t-91 -376.5q0 -193 45 -311t128.5 -168.5t215.5 -50.5q162 0 278 84l13 -109q-55 -41 -138.5 -65.5t-175.5 -24.5q-253 0 -374 153.5t-121 491.5z" />
<glyph unicode="d" horiz-adv-x="1277" d="M117 604q0 317 112.5 471t356.5 154q112 0 208 -40.5t160 -117.5l4 2l-4 164v391l125 10v-1638h-94l-20 141l-7 2q-115 -168 -374 -168q-249 0 -358 150.5t-109 478.5zM244 600q0 -282 82.5 -400t287.5 -118q58 0 109 11t87 28.5t65.5 41.5t47.5 47t31 48v686 q-45 76 -134.5 121t-203.5 45q-201 0 -286.5 -118.5t-85.5 -391.5z" />
<glyph unicode="e" horiz-adv-x="1173" d="M117 645q0 286 121.5 435t359.5 149q214 0 338.5 -137.5t124.5 -419.5q0 -30 -4 -62h-813q3 -193 49.5 -307t136.5 -162.5t238 -48.5q174 0 333 86l17 -108q-167 -95 -363 -95q-287 0 -412.5 158.5t-125.5 511.5zM242 698h704q-3 218 -95.5 319t-252.5 101 q-176 0 -261.5 -104t-94.5 -316z" />
<glyph unicode="f" horiz-adv-x="825" d="M80 1110v98h194v60q0 169 94 264.5t291 95.5q100 0 170 -24l-10 -88q-74 18 -143 18q-277 0 -277 -268v-58h340v-98h-340v-1110h-125v1110h-194z" />
<glyph unicode="g" horiz-adv-x="1157" d="M137 4q0 69 34.5 134t98.5 114q-110 49 -110 162q0 56 40.5 102.5t110.5 69.5l2 4q-145 79 -145 284q0 176 96.5 265.5t310.5 89.5q188 0 295 -84l195 88l29 -64l-156 -104q43 -78 43 -188q0 -177 -93 -264t-313 -87q-95 0 -174 23q-60 -13 -92.5 -42.5t-32.5 -68.5 q0 -77 119 -94l297 -31q146 -15 231.5 -51.5t119.5 -91t34 -137.5t-25 -145t-81 -108.5t-152 -70.5t-231 -24q-230 0 -340.5 84t-110.5 235zM248 18q0 -229 336 -229q109 0 184.5 16t116.5 47.5t58.5 70.5t17.5 93q0 55 -22.5 90t-86.5 59t-178 34l-295 30q-63 -40 -97 -97 t-34 -114zM289 872q0 -74 21 -124t61.5 -76t88 -36.5t113.5 -10.5q160 0 224.5 60t64.5 187q0 137 -67.5 194.5t-219.5 57.5q-153 0 -219.5 -61.5t-66.5 -190.5z" />
<glyph unicode="h" horiz-adv-x="1273" d="M207 0v1628l125 10v-397l-2 -164l4 -2q63 75 156.5 115.5t203.5 40.5q199 0 303.5 -106.5t104.5 -307.5v-817h-125v817q0 142 -78.5 217.5t-236.5 75.5q-109 0 -199 -47t-131 -119v-944h-125z" />
<glyph unicode="i" horiz-adv-x="630" d="M219 1542q0 41 25 63.5t71 22.5t71.5 -22.5t25.5 -63.5q0 -86 -97 -86q-48 0 -72 19.5t-24 66.5zM252 0v1202l125 10v-1212h-125z" />
<glyph unicode="j" horiz-adv-x="624" d="M-10 -293l10 98q49 -18 90 -18q74 0 116 44t42 136v1235l125 10v-1247q0 -280 -256 -280q-63 0 -127 22zM213 1546q0 86 96 86q47 0 72 -22.5t25 -63.5q0 -86 -97 -86q-49 0 -72.5 19t-23.5 67z" />
<glyph unicode="k" horiz-adv-x="1173" d="M207 0v1630l125 8v-929h192l422 501h160l-469 -553l489 -657h-157l-445 598h-192v-598h-125z" />
<glyph unicode="l" horiz-adv-x="606" d="M242 0v1630l123 8v-1638h-123z" />
<glyph unicode="m" horiz-adv-x="1871" d="M195 0v1206l88 8l24 -147h6q51 73 137 115.5t183 42.5q260 0 334 -201h6q41 98 130.5 150.5t209.5 52.5q178 0 282.5 -102t104.5 -302v-823h-123v821q0 144 -77 215.5t-216 71.5q-114 0 -194 -68.5t-80 -191.5v-848h-123v848q0 133 -76.5 196.5t-198.5 63.5 q-87 0 -170 -44.5t-125 -117.5v-946h-122z" />
<glyph unicode="n" horiz-adv-x="1261" d="M195 0v1206l88 8l22 -145h6q61 75 159.5 117.5t207.5 42.5q196 0 304 -103.5t108 -308.5v-817h-123v815q0 295 -320 295q-94 0 -187.5 -44t-142.5 -120v-946h-122z" />
<glyph unicode="o" horiz-adv-x="1247" d="M117 602q0 333 122.5 480t387.5 147q267 0 385 -146t118 -481q0 -338 -118 -483.5t-385 -145.5t-388.5 146.5t-121.5 482.5zM246 602q0 -283 88 -401.5t293 -118.5q203 0 288.5 119t85.5 401q0 281 -85.5 398.5t-288.5 117.5q-205 0 -293 -118t-88 -398z" />
<glyph unicode="p" horiz-adv-x="1273" d="M195 -295v1497l92 8l26 -139h6q62 74 160 116t215 42q91 0 161.5 -19.5t128.5 -64t95.5 -116t57.5 -177.5t20 -246q0 -169 -32.5 -291.5t-96 -196.5t-149.5 -108.5t-199 -34.5q-235 0 -354 156l-4 -2l2 -166v-258h-129zM324 262q44 -76 128.5 -126t202.5 -50 q69 0 122.5 14t102 50t80 94t50 149.5t18.5 212.5q0 146 -23.5 245t-71.5 155.5t-111.5 80t-153.5 23.5q-232 0 -344 -168v-680z" />
<glyph unicode="q" horiz-adv-x="1273" d="M117 604q0 327 120 476t359 149q120 0 216.5 -43.5t156.5 -126.5h6l20 147h80l-2 -1501l-125 -4v264l4 166l-4 2q-126 -151 -356 -151q-113 0 -198.5 33.5t-148.5 105.5t-95.5 193.5t-32.5 289.5zM246 604q0 -189 41.5 -301.5t120 -159.5t206.5 -47q141 0 234.5 61 t101.5 134v643q-33 73 -127 124.5t-207 51.5q-198 0 -284 -113.5t-86 -392.5z" />
<glyph unicode="r" horiz-adv-x="894" d="M195 0v1202l100 8l4 -135l4 -166h4q54 145 157 230.5t236 85.5q62 0 115 -15l-10 -129q-50 17 -111 17q-158 0 -267.5 -134t-109.5 -348v-616h-122z" />
<glyph unicode="s" horiz-adv-x="1003" d="M127 86l20 113q65 -54 158.5 -84.5t188.5 -30.5q147 0 218.5 66.5t71.5 177.5q0 65 -36 112.5t-93.5 75.5t-126.5 51t-138.5 49.5t-127 60.5t-93.5 93.5t-36 140.5q0 149 104.5 233.5t297.5 84.5q174 0 317 -70l-12 -108q-149 67 -308 67q-129 0 -204.5 -54t-75.5 -146 q0 -48 22 -85t60 -60.5t86.5 -43t102.5 -36.5t107.5 -35.5t102 -45.5t86.5 -61.5t60 -88.5t22 -122q0 -171 -100.5 -268t-304.5 -97q-108 0 -205 29t-164 82z" />
<glyph unicode="t" horiz-adv-x="792" d="M80 1108v100h190l25 318l98 12v-330h318v-100h-318v-817q0 -203 197 -203q62 0 102 16l10 -98q-57 -24 -145 -24q-289 0 -289 305v821h-188z" />
<glyph unicode="u" horiz-adv-x="1239" d="M172 381v827h123v-823q0 -142 82 -216.5t241 -74.5q160 0 243 74t83 217v823h123v-827q0 -194 -113 -300t-336 -106q-221 0 -333.5 106.5t-112.5 299.5z" />
<glyph unicode="v" horiz-adv-x="1290" d="M86 1208h141l359 -940l57 -155h6l56 155l358 940h139l-483 -1208h-148z" />
<glyph unicode="w" horiz-adv-x="1765" d="M127 1208h127l229 -948l37 -162h6l39 160l254 950h137l252 -954l41 -160h6l33 162l225 952h125l-305 -1208h-157l-244 915l-39 162h-6l-41 -162l-250 -915h-154z" />
<glyph unicode="x" horiz-adv-x="1208" d="M102 0l414 614l-403 594h151l342 -528l338 528h146l-396 -590l410 -618h-154l-352 551l-348 -551h-148z" />
<glyph unicode="y" horiz-adv-x="1290" d="M86 1208h150l389 -944l61 -153h6l49 157l324 940h137l-461 -1253q-59 -150 -138 -211t-193 -61q-103 0 -177 38l17 101q64 -37 139 -37q77 0 129.5 39t95.5 137l9 27z" />
<glyph unicode="z" horiz-adv-x="1114" d="M143 0v90l588 871l94 131l-2 4h-653l4 112h799v-92l-586 -870l-94 -129l2 -6h686l-4 -111h-834z" />
<glyph unicode="{" horiz-adv-x="739" d="M211 662v65q79 7 124.5 53.5t45.5 116.5q0 88 -20.5 239t-20.5 244q0 131 80 196.5t262 65.5h51v-104h-57q-118 0 -167.5 -43t-49.5 -129q0 -90 16.5 -232.5t16.5 -232.5q0 -74 -33.5 -128t-96.5 -75v-6q63 -24 96.5 -78.5t33.5 -126.5q0 -90 -16.5 -232.5t-16.5 -231.5 q0 -86 49.5 -130.5t167.5 -44.5h57v-102h-51q-182 0 -262 65.5t-80 194.5q0 93 20.5 245.5t20.5 240.5q0 70 -45.5 116.5t-124.5 53.5z" />
<glyph unicode="|" horiz-adv-x="565" d="M233 -362v2033h99v-2033h-99z" />
<glyph unicode="}" horiz-adv-x="739" d="M6 -152h57q118 0 169 44.5t51 130.5q0 89 -18.5 231.5t-18.5 232.5q0 73 33.5 127t97.5 78v6q-64 21 -97.5 75t-33.5 128q0 90 18.5 232.5t18.5 232.5q0 86 -50.5 129t-169.5 43h-57v104h51q182 0 262 -65.5t80 -196.5q0 -93 -20.5 -244t-20.5 -239q0 -70 45.5 -116.5 t124.5 -53.5v-65q-79 -7 -124.5 -53.5t-45.5 -116.5q0 -88 20.5 -240.5t20.5 -245.5q0 -129 -80 -194.5t-262 -65.5h-51v102z" />
<glyph unicode="~" d="M217 1317q41 252 246 252q50 0 108.5 -23.5t103.5 -52.5t100 -52.5t99 -23.5q67 0 104 31.5t60 97.5h82q-43 -250 -246 -250q-50 0 -108.5 23.5t-103 51.5t-99.5 51.5t-98 23.5q-65 0 -103.5 -31.5t-62.5 -97.5h-82z" />
<glyph unicode="&#xa1;" horiz-adv-x="620" d="M215 1288q0 86 92 86q96 0 96 -86q0 -90 -96 -90q-92 0 -92 90zM244 -276l18 1247h100l17 -1247h-135z" />
<glyph unicode="&#xa2;" horiz-adv-x="1034" d="M123 618q0 300 112 450.5t351 160.5l16 270h103l-17 -274q127 -12 234 -64l-11 -114q-129 63 -266 63q-211 0 -302 -115.5t-91 -376.5q0 -193 45 -311t128.5 -168.5t215.5 -50.5q163 0 279 84l12 -109q-106 -79 -277 -88l-10 -288h-104l12 288q-219 19 -324.5 173 t-105.5 470z" />
<glyph unicode="&#xa3;" horiz-adv-x="1323" d="M131 109q101 40 154 138t53 226q0 119 -25 244h-133l-4 110h109q-2 6 -8 29t-8 29.5t-7.5 27.5t-7.5 29.5t-6 27.5t-6 30t-4.5 29t-3.5 31.5t-2 30.5t-1 33q0 72 16.5 134t55.5 117.5t98 94.5t149.5 61.5t205.5 22.5q218 0 389 -84l-21 -120q-70 36 -165.5 59t-190.5 23 q-206 0 -304.5 -86.5t-98.5 -229.5q0 -100 51 -289h563v-110h-539q27 -139 27 -238q0 -124 -42 -217t-118 -147l2 -4q184 30 463 30q190 0 459 -26q-1 -3 -4.5 -62.5t-5.5 -64.5q-303 30 -506 30q-274 0 -578 -28z" />
<glyph unicode="&#xa4;" horiz-adv-x="1161" d="M164 399l129 131q-64 89 -64 205q0 118 68 211l-131 135l70 78l133 -139q96 70 209 70q117 0 208 -72l142 141l69 -76l-139 -141q68 -90 68 -207q0 -109 -62 -200l131 -134l-69 -77l-135 135q-93 -74 -213 -74q-119 0 -213 72l-132 -133zM319 739q0 -105 75.5 -178.5 t183.5 -73.5q107 0 181.5 73t74.5 179q0 105 -74.5 178.5t-181.5 73.5t-183 -74t-76 -178z" />
<glyph unicode="&#xa5;" horiz-adv-x="1484" d="M156 1536h155l361 -709l71 -147h7l69 147l359 709h149l-471 -866h240v-88h-277v-117h277v-86h-277v-379h-143v379h-285v86h285v117h-285v88h248z" />
<glyph unicode="&#xa6;" horiz-adv-x="565" d="M233 -352v917h99v-917h-99zM233 766v905h99v-905h-99z" />
<glyph unicode="&#xa7;" horiz-adv-x="1140" d="M150 741q0 94 52 174.5t163 124.5l2 4q-90 56 -138.5 119t-48.5 144q0 148 110.5 231.5t315.5 83.5q104 0 207 -26.5t172 -75.5l-16 -103q-162 99 -359 99q-147 0 -225 -54t-78 -149q0 -56 41 -104t106.5 -85t144.5 -74.5t158 -81t144.5 -94.5t106.5 -125t41 -163 q0 -96 -52.5 -176.5t-162.5 -122.5v-6q184 -115 184 -263t-110 -230.5t-314 -82.5q-105 0 -207 26.5t-172 75.5l14 103q153 -98 359 -98q148 0 225.5 53.5t77.5 148.5q0 56 -41 104t-106 85t-144 74.5t-158.5 81t-144.5 94.5t-106 125t-41 163zM270 754q0 -37 12 -71t29 -61 t48.5 -56t59 -49t72 -45.5t75.5 -41.5t82 -42.5t79 -41.5q101 33 151 92.5t50 134.5q0 37 -12 71t-29 61t-48.5 56t-59 49t-72 45.5t-75.5 41.5t-82 42.5t-79 41.5q-102 -32 -151.5 -91.5t-49.5 -135.5z" />
<glyph unicode="&#xa8;" horiz-adv-x="808" d="M184 1548q0 37 18.5 58.5t53.5 21.5q72 0 72 -80q0 -78 -72 -78q-36 0 -54 18t-18 60zM489 1548q0 37 18.5 58.5t53.5 21.5q72 0 72 -80q0 -78 -72 -78q-36 0 -54 18t-18 60z" />
<glyph unicode="&#xa9;" horiz-adv-x="1892" d="M141 778q0 218 107.5 402.5t293 292.5t404.5 108q163 0 312 -64t257 -171.5t172 -256t64 -311.5q0 -219 -108.5 -405t-293.5 -294t-403 -108q-164 0 -313.5 64t-257 172t-171 257.5t-63.5 313.5zM215 780q0 -194 96 -362t265 -268.5t370 -100.5q200 0 369 97.5 t267.5 265.5t98.5 368q0 145 -58 278t-156.5 230t-235 155t-285.5 58q-202 0 -370.5 -98t-264.5 -263.5t-96 -359.5zM440 778q0 142 60 259t181.5 190t283.5 73q90 0 171 -25t132 -63l-13 -98q-51 31 -122.5 49.5t-137.5 18.5q-200 0 -315 -112.5t-115 -291.5 q0 -183 118 -298t314 -115q145 0 287 84q5 -27 14 -95q-65 -49 -151.5 -81.5t-177.5 -32.5q-234 0 -381.5 150.5t-147.5 387.5z" />
<glyph unicode="&#xaa;" horiz-adv-x="831" d="M115 1069q0 123 75 190.5t216 67.5q111 0 188 -39v98q0 106 -46.5 148.5t-150.5 42.5q-117 0 -221 -49l-12 96q118 53 254 53q153 0 217.5 -71.5t64.5 -237.5v-557h-84l-10 107l-6 2q-83 -119 -235 -119q-118 0 -184 65.5t-66 202.5zM219 1069q0 -172 174 -172 q79 0 140 48t61 104v157q-17 12 -63.5 22.5t-104.5 10.5q-207 0 -207 -170z" />
<glyph unicode="&#xab;" horiz-adv-x="1249" d="M61 668v14l570 369v-109l-432 -268l432 -266v-111zM465 668v14l569 369v-109l-432 -268l432 -266v-111z" />
<glyph unicode="&#xac;" d="M248 641v119h844v-443h-107v324h-737z" />
<glyph unicode="&#xad;" horiz-adv-x="847" d="M164 647v98h518v-98h-518z" />
<glyph unicode="&#xae;" horiz-adv-x="927" d="M113 1360q0 148 103 252t249 104t249 -104t103 -252q0 -146 -103 -250t-249 -104t-249 104t-103 250zM158 1360q0 -126 91 -216.5t218 -90.5q124 0 213.5 90.5t89.5 216.5q0 128 -89 217.5t-214 89.5q-128 0 -218.5 -89.5t-90.5 -217.5zM317 1163v410h175q149 0 149 -121 q0 -41 -23 -73t-63 -42l100 -174h-71l-90 170h-113v-170h-64zM381 1382h123q37 0 56.5 19t19.5 49q0 68 -86 68h-113v-136z" />
<glyph unicode="&#xaf;" horiz-adv-x="808" d="M141 1479v90h539v-90h-539z" />
<glyph unicode="&#xb0;" horiz-adv-x="731" d="M115 1417q0 105 72.5 179.5t177.5 74.5q104 0 177.5 -74t73.5 -180q0 -103 -73.5 -178.5t-177.5 -75.5q-102 0 -176 75.5t-74 178.5zM184 1417q0 -73 53 -125.5t130 -52.5q74 0 127 52t53 126q0 76 -53 128t-127 52q-80 0 -131.5 -52.5t-51.5 -127.5z" />
<glyph unicode="&#xb1;" d="M225 166v104h883v-104h-883zM227 713v116h381v383h115v-383h389v-116h-389v-355h-115v355h-381z" />
<glyph unicode="&#xb2;" horiz-adv-x="698" d="M92 1028v72q28 26 79.5 73t78.5 72t69.5 66t65 66t51 60.5t42.5 62t24 56.5t10 58q0 63 -43 101t-133 38q-108 0 -215 -80l-29 86q114 88 264 88q130 0 198.5 -60t68.5 -165q0 -50 -20.5 -101t-51 -95t-85.5 -98t-105.5 -96.5t-129.5 -105.5v-6h400l-2 -92h-537z" />
<glyph unicode="&#xb3;" horiz-adv-x="698" d="M72 1085l26 84q99 -61 228 -61q98 0 147 45.5t49 122.5t-59.5 110t-206.5 33v78q134 0 191 34.5t57 104.5q0 121 -172 121q-130 0 -226 -78l-26 80q45 39 112 63.5t142 24.5q127 0 198.5 -53t71.5 -152q0 -138 -147 -180v-4q168 -35 168 -188q0 -119 -74 -184.5 t-225 -65.5q-147 0 -254 65z" />
<glyph unicode="&#xb4;" horiz-adv-x="808" d="M334 1362l164 291h164l-226 -291h-102z" />
<glyph unicode="&#xb5;" horiz-adv-x="1261" d="M195 -307v1515h124l-2 -817q0 -141 94 -221t244 -80q137 0 223.5 68.5t86.5 193.5v856h125v-1206l-91 -10l-20 135l-6 2q-41 -73 -125 -112.5t-191 -39.5q-115 0 -210 47.5t-142 147.5l-4 -2q9 -236 21 -465z" />
<glyph unicode="&#xb6;" horiz-adv-x="1316" d="M113 1294q0 108 75 175t215 67h799l-6 -113h-160v-1724h-112v1724h-416l2 -1724h-113v1341q-130 3 -207 69t-77 185z" />
<glyph unicode="&#xb7;" horiz-adv-x="565" d="M186 705q0 94 99 94q94 0 94 -94q0 -97 -94 -97q-51 0 -75 23t-24 74z" />
<glyph unicode="&#xb8;" horiz-adv-x="808" d="M281 -393l120 393h88l-81 -393h-127z" />
<glyph unicode="&#xb9;" horiz-adv-x="540" d="M100 1673l228 168h65v-813h-108v508l6 162l-6 2l-174 -117z" />
<glyph unicode="&#xba;" horiz-adv-x="899" d="M111 1237q0 236 81.5 338t260.5 102q180 0 259 -101.5t79 -338.5t-79.5 -337.5t-258.5 -100.5q-181 0 -261.5 100.5t-80.5 337.5zM221 1237q0 -190 53 -265t179 -75q125 0 177 75t52 265q0 189 -52 263.5t-177 74.5q-126 0 -179 -74.5t-53 -263.5z" />
<glyph unicode="&#xbb;" horiz-adv-x="1249" d="M172 297v111l432 266l-432 268v109l569 -369v-14zM578 297v111l432 266l-432 268v109l569 -369v-14z" />
<glyph unicode="&#xbc;" horiz-adv-x="1779" d="M279 1372l227 168h65v-813h-108v508l6 162l-6 2l-174 -117zM313 0l1041 1536h100l-1040 -1536h-101zM948 240l389 567h131v-541h105l-4 -86h-101v-180h-100v180h-412zM1071 272l2 -6h297l2 281l6 166l-4 2l-92 -140l-117 -174z" />
<glyph unicode="&#xbd;" horiz-adv-x="1779" d="M272 1372l228 168h65v-813h-108v508l6 162l-6 2l-174 -117zM299 0l1040 1536h101l-1041 -1536h-100zM1069 0v72q26 24 79.5 72.5t79 71.5t69 65t65 66.5t50.5 60.5t43 62.5t24 57t10 58.5q0 63 -43 101t-133 38q-108 0 -215 -80l-29 86q116 86 264 86q130 0 198 -59 t68 -164q0 -50 -20 -101t-51 -95.5t-85 -98t-106 -97t-129 -104.5v-6h400l-2 -92h-537z" />
<glyph unicode="&#xbe;" horiz-adv-x="1779" d="M145 784l27 84q99 -61 227 -61q98 0 147.5 45.5t49.5 122.5t-59.5 110t-206.5 33v78q134 0 191 34.5t57 104.5q0 121 -172 121q-128 0 -226 -76l-26 78q45 39 112 63.5t142 24.5q128 0 199 -52.5t71 -152.5q0 -138 -148 -180v-4q168 -35 168 -188q0 -119 -74 -184.5 t-225 -65.5q-147 0 -254 65zM315 0l1041 1536h100l-1040 -1536h-101zM952 240l389 567h132v-541h104l-4 -86h-100v-180h-101v180h-411zM1075 272l2 -6h297l2 281l6 166l-4 2l-92 -140l-117 -174z" />
<glyph unicode="&#xbf;" horiz-adv-x="1003" d="M109 145q0 167 96.5 290.5t288.5 230.5l8 299h100l8 -351q-194 -122 -283 -222t-89 -232q0 -127 77 -187.5t217 -60.5q216 0 392 156l49 -99q-79 -80 -196.5 -129t-254.5 -49q-205 0 -309 91t-104 263zM455 1286q0 90 92 90q96 0 96 -90q0 -88 -96 -88q-92 0 -92 88z" />
<glyph unicode="&#xc0;" horiz-adv-x="1429" d="M51 0l584 1536h160l583 -1536h-151l-146 406h-739l-145 -406h-146zM387 526h651l-268 752l-51 158h-6l-54 -158zM465 1876h170l176 -234h-109z" />
<glyph unicode="&#xc1;" horiz-adv-x="1429" d="M51 0l584 1536h160l583 -1536h-151l-146 406h-739l-145 -406h-146zM387 526h651l-268 752l-51 158h-6l-54 -158zM610 1638l178 236h185l-256 -236h-107z" />
<glyph unicode="&#xc2;" horiz-adv-x="1429" d="M51 0l584 1536h160l583 -1536h-151l-146 406h-739l-145 -406h-146zM387 526h651l-268 752l-51 158h-6l-54 -158zM408 1638l239 236h133l248 -236h-131l-182 170l-178 -170h-129z" />
<glyph unicode="&#xc3;" horiz-adv-x="1429" d="M51 0l584 1536h160l583 -1536h-151l-146 406h-739l-145 -406h-146zM387 526h651l-268 752l-51 158h-6l-54 -158zM432 1657q11 91 51.5 144.5t106.5 53.5q37 0 75.5 -22.5t65 -50t58 -50t57.5 -22.5q67 0 90 117l61 -2q-9 -91 -50.5 -146t-108.5 -55q-36 0 -73 22.5 t-63.5 50t-58 50t-57.5 22.5q-63 0 -90 -114z" />
<glyph unicode="&#xc4;" horiz-adv-x="1429" d="M51 0l584 1536h160l583 -1536h-151l-146 406h-739l-145 -406h-146zM387 526h651l-268 752l-51 158h-6l-54 -158zM453 1731q0 75 71 75q70 0 70 -75q0 -76 -70 -76q-36 0 -53.5 18t-17.5 58zM838 1731q0 75 71 75q70 0 70 -75q0 -76 -70 -76q-36 0 -53.5 18t-17.5 58z" />
<glyph unicode="&#xc5;" horiz-adv-x="1429" d="M51 0l576 1516q-80 36 -80 133q0 67 43.5 107t124.5 40q78 0 123 -39.5t45 -105.5q0 -97 -82 -133l577 -1518h-151l-146 406h-739l-145 -406h-146zM387 526h651l-268 752l-51 158h-6l-54 -158zM621 1647q0 -38 24 -60t70 -22q47 0 71.5 21.5t24.5 60.5q0 38 -25 60 t-71 22t-70 -22t-24 -60z" />
<glyph unicode="&#xc6;" horiz-adv-x="2150" d="M115 0l870 1536h1032l4 -127h-831l65 -547h648v-114h-633l73 -621h699l-6 -127h-811l-47 406h-678l-221 -406h-164zM565 526h598l-86 744l-14 164l-6 2l-76 -148z" />
<glyph unicode="&#xc7;" horiz-adv-x="1251" d="M143 784q0 403 156.5 590t491.5 187q93 0 194 -21.5t164 -52.5l-19 -125q-151 70 -333 70q-135 0 -228.5 -33t-159 -108.5t-96 -200t-30.5 -306.5q0 -194 31 -326t97 -211t160.5 -113t231.5 -34q182 0 332 80l22 -117q-67 -36 -156.5 -61t-179.5 -29l-76 -366h-127 l113 366q-306 15 -447 209.5t-141 601.5z" />
<glyph unicode="&#xc8;" horiz-adv-x="1282" d="M227 0v1536h906l6 -127h-779v-547h674v-114h-674v-621h816l-7 -127h-942zM449 1876h169l177 -234h-109z" />
<glyph unicode="&#xc9;" horiz-adv-x="1282" d="M227 0v1536h906l6 -127h-779v-547h674v-114h-674v-621h816l-7 -127h-942zM594 1638l178 236h184l-256 -236h-106z" />
<glyph unicode="&#xca;" horiz-adv-x="1282" d="M227 0v1536h906l6 -127h-779v-547h674v-114h-674v-621h816l-7 -127h-942zM393 1638l240 236h133l248 -236h-131l-183 170l-178 -170h-129z" />
<glyph unicode="&#xcb;" horiz-adv-x="1282" d="M227 0v1536h906l6 -127h-779v-547h674v-114h-674v-621h816l-7 -127h-942zM436 1731q0 75 72 75q70 0 70 -75q0 -76 -70 -76q-72 0 -72 76zM821 1731q0 75 72 75q70 0 70 -75q0 -76 -70 -76q-72 0 -72 76z" />
<glyph unicode="&#xcc;" horiz-adv-x="647" d="M74 1876h170l176 -234h-109zM256 0v1536h135v-1536h-135z" />
<glyph unicode="&#xcd;" horiz-adv-x="647" d="M219 1638l178 236h185l-256 -236h-107zM256 0v1536h135v-1536h-135z" />
<glyph unicode="&#xce;" horiz-adv-x="647" d="M16 1638l240 236h133l248 -236h-131l-182 170l-179 -170h-129zM256 0v1536h135v-1536h-135z" />
<glyph unicode="&#xcf;" horiz-adv-x="647" d="M61 1731q0 75 72 75q70 0 70 -75q0 -76 -70 -76q-72 0 -72 76zM256 0v1536h135v-1536h-135zM446 1731q0 75 72 75q70 0 70 -75q0 -76 -70 -76q-72 0 -72 76z" />
<glyph unicode="&#xd0;" horiz-adv-x="1527" d="M80 760v92h160v684h501q341 0 493 -177.5t152 -584.5q0 -279 -71 -450.5t-210.5 -247.5t-361.5 -76h-503v760h-160zM375 129h364q132 0 222.5 29.5t156.5 102t96.5 198.5t30.5 315q0 182 -28.5 303t-92.5 194t-156.5 103.5t-230.5 30.5h-362v-553h239v-92h-239v-631z" />
<glyph unicode="&#xd1;" horiz-adv-x="1564" d="M227 0v1536h133l768 -1159l91 -139l4 2l-4 163l-2 1133h120v-1536h-100l-795 1188l-90 139l-4 -2l2 -166v-1159h-123zM516 1657q11 91 51.5 144.5t106.5 53.5q37 0 75.5 -22.5t65 -50t58 -50t57.5 -22.5q67 0 90 117l61 -2q-9 -91 -50.5 -146t-108.5 -55q-36 0 -73 22.5 t-63.5 50t-58 50t-57.5 22.5q-63 0 -90 -114z" />
<glyph unicode="&#xd2;" horiz-adv-x="1509" d="M143 768q0 428 140.5 610.5t472.5 182.5q333 0 472.5 -182t139.5 -611q0 -430 -139.5 -613.5t-472.5 -183.5q-331 0 -472 184.5t-141 612.5zM283 768q0 -156 17 -267.5t51.5 -189.5t92.5 -123.5t133.5 -65.5t180.5 -20q174 0 274 59t148.5 204t48.5 403 q0 195 -25.5 322.5t-84.5 204t-145 107t-218 30.5q-105 0 -179.5 -19.5t-132.5 -65t-92.5 -122.5t-51.5 -189t-17 -268zM545 1876h170l176 -234h-109z" />
<glyph unicode="&#xd3;" horiz-adv-x="1509" d="M143 768q0 428 140.5 610.5t472.5 182.5q333 0 472.5 -182t139.5 -611q0 -430 -139.5 -613.5t-472.5 -183.5q-331 0 -472 184.5t-141 612.5zM283 768q0 -156 17 -267.5t51.5 -189.5t92.5 -123.5t133.5 -65.5t180.5 -20q174 0 274 59t148.5 204t48.5 403 q0 195 -25.5 322.5t-84.5 204t-145 107t-218 30.5q-105 0 -179.5 -19.5t-132.5 -65t-92.5 -122.5t-51.5 -189t-17 -268zM651 1638l178 236h185l-256 -236h-107z" />
<glyph unicode="&#xd4;" horiz-adv-x="1509" d="M143 768q0 428 140.5 610.5t472.5 182.5q333 0 472.5 -182t139.5 -611q0 -430 -139.5 -613.5t-472.5 -183.5q-331 0 -472 184.5t-141 612.5zM283 768q0 -156 17 -267.5t51.5 -189.5t92.5 -123.5t133.5 -65.5t180.5 -20q174 0 274 59t148.5 204t48.5 403 q0 195 -25.5 322.5t-84.5 204t-145 107t-218 30.5q-105 0 -179.5 -19.5t-132.5 -65t-92.5 -122.5t-51.5 -189t-17 -268zM451 1638l239 236h133l248 -236h-131l-182 170l-178 -170h-129z" />
<glyph unicode="&#xd5;" horiz-adv-x="1509" d="M143 768q0 428 140.5 610.5t472.5 182.5q333 0 472.5 -182t139.5 -611q0 -430 -139.5 -613.5t-472.5 -183.5q-331 0 -472 184.5t-141 612.5zM283 768q0 -156 17 -267.5t51.5 -189.5t92.5 -123.5t133.5 -65.5t180.5 -20q174 0 274 59t148.5 204t48.5 403 q0 195 -25.5 322.5t-84.5 204t-145 107t-218 30.5q-105 0 -179.5 -19.5t-132.5 -65t-92.5 -122.5t-51.5 -189t-17 -268zM475 1657q11 91 51.5 144.5t106.5 53.5q37 0 75.5 -22.5t65 -50t58 -50t57.5 -22.5q67 0 90 117l61 -2q-9 -91 -50.5 -146t-108.5 -55q-36 0 -73 22.5 t-63.5 50t-58 50t-57.5 22.5q-63 0 -90 -114z" />
<glyph unicode="&#xd6;" horiz-adv-x="1509" d="M143 768q0 428 140.5 610.5t472.5 182.5q333 0 472.5 -182t139.5 -611q0 -430 -139.5 -613.5t-472.5 -183.5q-331 0 -472 184.5t-141 612.5zM283 768q0 -156 17 -267.5t51.5 -189.5t92.5 -123.5t133.5 -65.5t180.5 -20q174 0 274 59t148.5 204t48.5 403 q0 195 -25.5 322.5t-84.5 204t-145 107t-218 30.5q-105 0 -179.5 -19.5t-132.5 -65t-92.5 -122.5t-51.5 -189t-17 -268zM494 1731q0 75 71 75q70 0 70 -75q0 -76 -70 -76q-36 0 -53.5 18t-17.5 58zM879 1731q0 75 71 75q70 0 70 -75q0 -76 -70 -76q-36 0 -53.5 18t-17.5 58z " />
<glyph unicode="&#xd7;" horiz-adv-x="1216" d="M217 377l320 315l-318 314l74 84l319 -316l314 316l75 -84l-317 -314l315 -315l-71 -82l-318 315l-317 -315z" />
<glyph unicode="&#xd8;" horiz-adv-x="1509" d="M121 43l127 168q-105 183 -105 557q0 288 61.5 460t195.5 252.5t358 80.5q323 0 465 -172l141 167l70 -67l-154 -193q88 -180 88 -528q0 -431 -138.5 -614t-471.5 -183q-311 0 -451 156l-117 -156zM285 768q0 -300 63 -449l785 957q-55 84 -146 120t-229 36 q-105 0 -179.5 -19.5t-132.5 -65t-92.5 -122.5t-51.5 -189t-17 -268zM395 240q56 -73 144.5 -105.5t218.5 -32.5q175 0 275 59t148 204t48 403q0 273 -49 424l-6 2l-103 -131z" />
<glyph unicode="&#xd9;" horiz-adv-x="1517" d="M193 555v981h135v-981q0 -234 106.5 -343.5t325.5 -109.5q217 0 323.5 110.5t106.5 342.5v981h135v-981q0 -584 -565 -584q-567 0 -567 584zM508 1876h170l176 -234h-109z" />
<glyph unicode="&#xda;" horiz-adv-x="1517" d="M193 555v981h135v-981q0 -234 106.5 -343.5t325.5 -109.5q217 0 323.5 110.5t106.5 342.5v981h135v-981q0 -584 -565 -584q-567 0 -567 584zM651 1638l178 236h185l-256 -236h-107z" />
<glyph unicode="&#xdb;" horiz-adv-x="1517" d="M193 555v981h135v-981q0 -234 106.5 -343.5t325.5 -109.5q217 0 323.5 110.5t106.5 342.5v981h135v-981q0 -584 -565 -584q-567 0 -567 584zM451 1638l239 236h133l248 -236h-131l-182 170l-178 -170h-129z" />
<glyph unicode="&#xdc;" horiz-adv-x="1517" d="M193 555v981h135v-981q0 -234 106.5 -343.5t325.5 -109.5q217 0 323.5 110.5t106.5 342.5v981h135v-981q0 -584 -565 -584q-567 0 -567 584zM496 1731q0 75 71 75q70 0 70 -75q0 -76 -70 -76q-36 0 -53.5 18t-17.5 58zM881 1731q0 75 71 75q70 0 70 -75q0 -76 -70 -76 q-36 0 -53.5 18t-17.5 58z" />
<glyph unicode="&#xdd;" horiz-adv-x="1343" d="M61 1536h158l381 -719l74 -147h6l72 147l378 719h152l-539 -997v-539h-137v539zM569 1638l179 236h184l-256 -236h-107z" />
<glyph unicode="&#xde;" horiz-adv-x="1320" d="M227 0v1536h133v-287h308q294 0 421.5 -107t127.5 -349q0 -238 -127.5 -348.5t-421.5 -110.5h-308v-334h-133zM360 451h308q221 0 317 76t96 268q0 182 -96 257.5t-317 75.5h-308v-677z" />
<glyph unicode="&#xdf;" horiz-adv-x="1273" d="M207 0v1047q0 249 118 382.5t334 133.5q143 0 236.5 -75t93.5 -185q0 -63 -32 -122t-77.5 -102.5t-90.5 -81t-77 -71t-32 -58.5q0 -28 36.5 -57.5t91.5 -55.5t119 -64.5t119 -82t91.5 -111.5t36.5 -149q0 -170 -119.5 -267t-319.5 -97q-90 0 -182 22t-152 66l13 114 q120 -88 303 -88q150 0 241 64.5t91 181.5q0 59 -27.5 109t-72 85.5t-98 67t-107 59t-98 54.5t-72 61t-27.5 72q0 42 33.5 86t81.5 83t95.5 80t81 92.5t33.5 104.5q0 67 -59 110.5t-156 43.5q-161 0 -244 -100.5t-83 -292.5v-1059h-123z" />
<glyph unicode="&#xe0;" horiz-adv-x="1163" d="M131 360q0 175 109 268t327 93q161 0 301 -53v149q0 168 -72.5 235.5t-236.5 67.5q-193 0 -342 -76l-14 109q174 80 377 80q222 0 317.5 -100t95.5 -334v-799h-94l-14 170l-6 2q-50 -87 -151 -138.5t-226 -51.5q-173 0 -272 92t-99 286zM250 362q0 -274 285 -274 q130 0 231.5 75.5t101.5 164.5v241q-28 21 -105.5 39.5t-176.5 18.5q-336 0 -336 -265zM346 1653h162l149 -291h-100z" />
<glyph unicode="&#xe1;" horiz-adv-x="1163" d="M131 360q0 175 109 268t327 93q161 0 301 -53v149q0 168 -72.5 235.5t-236.5 67.5q-193 0 -342 -76l-14 109q174 80 377 80q222 0 317.5 -100t95.5 -334v-799h-94l-14 170l-6 2q-50 -87 -151 -138.5t-226 -51.5q-173 0 -272 92t-99 286zM250 362q0 -274 285 -274 q130 0 231.5 75.5t101.5 164.5v241q-28 21 -105.5 39.5t-176.5 18.5q-336 0 -336 -265zM469 1362l164 291h164l-226 -291h-102z" />
<glyph unicode="&#xe2;" horiz-adv-x="1163" d="M131 360q0 175 109 268t327 93q161 0 301 -53v149q0 168 -72.5 235.5t-236.5 67.5q-193 0 -342 -76l-14 109q174 80 377 80q222 0 317.5 -100t95.5 -334v-799h-94l-14 170l-6 2q-50 -87 -151 -138.5t-226 -51.5q-173 0 -272 92t-99 286zM250 362q0 -274 285 -274 q130 0 231.5 75.5t101.5 164.5v241q-28 21 -105.5 39.5t-176.5 18.5q-336 0 -336 -265zM301 1362l215 291h115l219 -291h-105l-172 231l-167 -231h-105z" />
<glyph unicode="&#xe3;" horiz-adv-x="1163" d="M131 360q0 175 109 268t327 93q161 0 301 -53v149q0 168 -72.5 235.5t-236.5 67.5q-193 0 -342 -76l-14 109q174 80 377 80q222 0 317.5 -100t95.5 -334v-799h-94l-14 170l-6 2q-50 -87 -151 -138.5t-226 -51.5q-173 0 -272 92t-99 286zM250 362q0 -274 285 -274 q130 0 231.5 75.5t101.5 164.5v241q-28 21 -105.5 39.5t-176.5 18.5q-336 0 -336 -265zM287 1415q11 101 53 160t106 59q33 0 64 -16t55 -38t47 -44.5t48 -38.5t49 -16q65 0 92 131l67 -2q-11 -101 -54 -160t-107 -59q-39 0 -77 24t-63 52.5t-57.5 52.5t-60.5 24 q-30 0 -55.5 -36t-39.5 -95z" />
<glyph unicode="&#xe4;" horiz-adv-x="1163" d="M131 360q0 175 109 268t327 93q161 0 301 -53v149q0 168 -72.5 235.5t-236.5 67.5q-193 0 -342 -76l-14 109q174 80 377 80q222 0 317.5 -100t95.5 -334v-799h-94l-14 170l-6 2q-50 -87 -151 -138.5t-226 -51.5q-173 0 -272 92t-99 286zM250 362q0 -274 285 -274 q130 0 231.5 75.5t101.5 164.5v241q-28 21 -105.5 39.5t-176.5 18.5q-336 0 -336 -265zM362 1548q0 37 18.5 58.5t53.5 21.5q72 0 72 -80q0 -78 -72 -78q-36 0 -54 18t-18 60zM668 1548q0 37 18 58.5t53 21.5q72 0 72 -80q0 -78 -72 -78q-36 0 -53.5 18t-17.5 60z" />
<glyph unicode="&#xe5;" horiz-adv-x="1163" d="M131 360q0 175 109 268t327 93q161 0 301 -53v149q0 168 -72.5 235.5t-236.5 67.5q-193 0 -342 -76l-14 109q174 80 377 80q222 0 317.5 -100t95.5 -334v-799h-94l-14 170l-6 2q-50 -87 -151 -138.5t-226 -51.5q-173 0 -272 92t-99 286zM250 362q0 -274 285 -274 q130 0 231.5 75.5t101.5 164.5v241q-28 21 -105.5 39.5t-176.5 18.5q-336 0 -336 -265zM401 1526q0 70 48 112.5t133 42.5q83 0 131.5 -43t48.5 -112q0 -70 -48 -112t-132 -42t-132.5 41t-48.5 113zM473 1526q0 -43 28.5 -68.5t82.5 -25.5q51 0 81.5 26t30.5 68t-30 68 t-82 26q-54 0 -82.5 -25.5t-28.5 -68.5z" />
<glyph unicode="&#xe6;" horiz-adv-x="1910" d="M131 356q0 174 109 266.5t327 92.5q160 0 301 -58v156q0 168 -72.5 235.5t-236.5 67.5q-193 0 -342 -76l-14 109q174 80 377 80q155 0 242 -50.5t122 -162.5h4q118 213 393 213q209 0 332 -138t123 -419q0 -46 -2 -62h-811q4 -193 50.5 -307t136 -162.5t235.5 -48.5 q168 0 334 88l16 -110q-167 -95 -364 -95q-184 0 -297 64.5t-164 196.5h-6q-45 -121 -153.5 -190t-258.5 -69q-180 0 -280.5 92t-100.5 287zM248 358q0 -145 77.5 -209.5t209.5 -64.5q145 0 239 82.5t94 206.5v192q-28 21 -105.5 39.5t-176.5 18.5q-338 0 -338 -265z M981 698h702q-3 218 -96.5 319t-251.5 101q-173 0 -259.5 -104.5t-94.5 -315.5z" />
<glyph unicode="&#xe7;" horiz-adv-x="1026" d="M117 618q0 312 120 461.5t377 149.5q162 0 301 -68l-10 -114q-129 63 -266 63q-211 0 -302 -115.5t-91 -376.5q0 -193 45 -311t128.5 -168.5t215.5 -50.5q162 0 278 84l13 -109q-106 -79 -281 -88l-76 -368h-127l113 368q-223 17 -330.5 171t-107.5 472z" />
<glyph unicode="&#xe8;" horiz-adv-x="1173" d="M117 645q0 286 121.5 435t359.5 149q214 0 338.5 -137.5t124.5 -419.5q0 -30 -4 -62h-813q3 -193 49.5 -307t136.5 -162.5t238 -48.5q174 0 333 86l17 -108q-167 -95 -363 -95q-287 0 -412.5 158.5t-125.5 511.5zM242 698h704q-3 218 -95.5 319t-252.5 101 q-176 0 -261.5 -104t-94.5 -316zM371 1653h161l150 -291h-100z" />
<glyph unicode="&#xe9;" horiz-adv-x="1173" d="M117 645q0 286 121.5 435t359.5 149q214 0 338.5 -137.5t124.5 -419.5q0 -30 -4 -62h-813q3 -193 49.5 -307t136.5 -162.5t238 -48.5q174 0 333 86l17 -108q-167 -95 -363 -95q-287 0 -412.5 158.5t-125.5 511.5zM242 698h704q-3 218 -95.5 319t-252.5 101 q-176 0 -261.5 -104t-94.5 -316zM494 1362l163 291h164l-225 -291h-102z" />
<glyph unicode="&#xea;" horiz-adv-x="1173" d="M117 645q0 286 121.5 435t359.5 149q214 0 338.5 -137.5t124.5 -419.5q0 -30 -4 -62h-813q3 -193 49.5 -307t136.5 -162.5t238 -48.5q174 0 333 86l17 -108q-167 -95 -363 -95q-287 0 -412.5 158.5t-125.5 511.5zM242 698h704q-3 218 -95.5 319t-252.5 101 q-176 0 -261.5 -104t-94.5 -316zM324 1362l215 291h114l219 -291h-104l-172 231l-168 -231h-104z" />
<glyph unicode="&#xeb;" horiz-adv-x="1173" d="M117 645q0 286 121.5 435t359.5 149q214 0 338.5 -137.5t124.5 -419.5q0 -30 -4 -62h-813q3 -193 49.5 -307t136.5 -162.5t238 -48.5q174 0 333 86l17 -108q-167 -95 -363 -95q-287 0 -412.5 158.5t-125.5 511.5zM242 698h704q-3 218 -95.5 319t-252.5 101 q-176 0 -261.5 -104t-94.5 -316zM360 1548q0 37 18.5 58.5t53.5 21.5q72 0 72 -80q0 -78 -72 -78q-36 0 -54 18t-18 60zM666 1548q0 37 18 58.5t53 21.5q72 0 72 -80q0 -78 -72 -78q-36 0 -53.5 18t-17.5 60z" />
<glyph unicode="&#xec;" horiz-adv-x="630" d="M84 1653h162l149 -291h-100zM252 0v1202l125 10v-1212h-125z" />
<glyph unicode="&#xed;" horiz-adv-x="630" d="M207 1362l164 291h164l-226 -291h-102zM252 0v1202l125 10v-1212h-125z" />
<glyph unicode="&#xee;" horiz-adv-x="630" d="M37 1362l215 291h115l219 -291h-105l-172 231l-168 -231h-104zM252 0v1202l125 10v-1212h-125z" />
<glyph unicode="&#xef;" horiz-adv-x="630" d="M98 1548q0 37 18.5 58.5t53.5 21.5q72 0 72 -80q0 -78 -72 -78q-36 0 -54 18t-18 60zM252 0v1202l125 10v-1212h-125zM403 1548q0 37 18.5 58.5t53.5 21.5q72 0 72 -80q0 -78 -72 -78q-36 0 -54 18t-18 60z" />
<glyph unicode="&#xf0;" horiz-adv-x="1249" d="M117 590q0 305 112.5 446.5t368.5 141.5q215 0 342 -121l4 4q-92 188 -276 346l-176 -145l-54 49l170 143q-89 69 -202 133l77 68q97 -50 203 -135l162 135l53 -56l-158 -131q173 -158 281.5 -367t108.5 -423q0 -372 -123.5 -537.5t-378.5 -165.5q-131 0 -223.5 31 t-159.5 102t-99 190t-32 292zM244 586q0 -145 24 -243t75 -153.5t119 -78.5t165 -23q191 0 285 136.5t94 432.5q0 408 -379 408q-205 0 -294 -110t-89 -369z" />
<glyph unicode="&#xf1;" horiz-adv-x="1261" d="M195 0v1206l88 8l22 -145h6q61 75 159.5 117.5t207.5 42.5q196 0 304 -103.5t108 -308.5v-817h-123v815q0 295 -320 295q-94 0 -187.5 -44t-142.5 -120v-946h-122zM346 1415q11 101 53.5 160t106.5 59q40 0 78.5 -24t64 -52.5t58 -52.5t61.5 -24q65 0 92 131l68 -2 q-11 -101 -54.5 -160t-107.5 -59q-39 0 -77 24t-63 52.5t-57.5 52.5t-60.5 24q-30 0 -55 -35.5t-39 -95.5z" />
<glyph unicode="&#xf2;" horiz-adv-x="1247" d="M117 602q0 333 122.5 480t387.5 147q267 0 385 -146t118 -481q0 -338 -118 -483.5t-385 -145.5t-388.5 146.5t-121.5 482.5zM246 602q0 -283 88 -401.5t293 -118.5q203 0 288.5 119t85.5 401q0 281 -85.5 398.5t-288.5 117.5q-205 0 -293 -118t-88 -398zM399 1653h162 l150 -291h-101z" />
<glyph unicode="&#xf3;" horiz-adv-x="1247" d="M117 602q0 333 122.5 480t387.5 147q267 0 385 -146t118 -481q0 -338 -118 -483.5t-385 -145.5t-388.5 146.5t-121.5 482.5zM246 602q0 -283 88 -401.5t293 -118.5q203 0 288.5 119t85.5 401q0 281 -85.5 398.5t-288.5 117.5q-205 0 -293 -118t-88 -398zM522 1362 l164 291h164l-225 -291h-103z" />
<glyph unicode="&#xf4;" horiz-adv-x="1247" d="M117 602q0 333 122.5 480t387.5 147q267 0 385 -146t118 -481q0 -338 -118 -483.5t-385 -145.5t-388.5 146.5t-121.5 482.5zM246 602q0 -283 88 -401.5t293 -118.5q203 0 288.5 119t85.5 401q0 281 -85.5 398.5t-288.5 117.5q-205 0 -293 -118t-88 -398zM352 1362 l215 291h115l219 -291h-104l-172 231l-168 -231h-105z" />
<glyph unicode="&#xf5;" horiz-adv-x="1247" d="M117 602q0 333 122.5 480t387.5 147q267 0 385 -146t118 -481q0 -338 -118 -483.5t-385 -145.5t-388.5 146.5t-121.5 482.5zM246 602q0 -283 88 -401.5t293 -118.5q203 0 288.5 119t85.5 401q0 281 -85.5 398.5t-288.5 117.5q-205 0 -293 -118t-88 -398zM340 1415 q11 101 53.5 160t106.5 59q40 0 78.5 -24t64 -52.5t58 -52.5t61.5 -24q65 0 92 131l68 -2q-11 -101 -54.5 -160t-107.5 -59q-39 0 -77 24t-63 52.5t-57.5 52.5t-60.5 24q-30 0 -55 -35.5t-39 -95.5z" />
<glyph unicode="&#xf6;" horiz-adv-x="1247" d="M117 602q0 333 122.5 480t387.5 147q267 0 385 -146t118 -481q0 -338 -118 -483.5t-385 -145.5t-388.5 146.5t-121.5 482.5zM246 602q0 -283 88 -401.5t293 -118.5q203 0 288.5 119t85.5 401q0 281 -85.5 398.5t-288.5 117.5q-205 0 -293 -118t-88 -398zM399 1548 q0 37 18.5 58.5t53.5 21.5q72 0 72 -80q0 -78 -72 -78q-36 0 -54 18t-18 60zM705 1548q0 37 18 58.5t53 21.5q72 0 72 -80q0 -78 -72 -78q-36 0 -53.5 18t-17.5 60z" />
<glyph unicode="&#xf7;" horiz-adv-x="1216" d="M141 637v123h936v-123h-936zM512 387q0 42 24.5 64t69.5 22q96 0 96 -86q0 -84 -96 -84q-47 0 -70.5 19.5t-23.5 64.5zM512 1006q0 42 24.5 64t69.5 22q96 0 96 -86q0 -41 -25 -62.5t-71 -21.5q-47 0 -70.5 19.5t-23.5 64.5z" />
<glyph unicode="&#xf8;" horiz-adv-x="1247" d="M92 59l101 129q-76 146 -76 414q0 333 122.5 480t387.5 147q235 0 352 -111l82 107l57 -56l-84 -118q96 -145 96 -449q0 -338 -118 -483.5t-385 -145.5q-263 0 -385 142l-92 -113zM246 602q0 -183 35 -305h4l106 125l516 590q-87 106 -280 106q-206 0 -293.5 -118 t-87.5 -398zM315 225q84 -143 312 -143q203 0 288.5 119t85.5 401q0 231 -55 344z" />
<glyph unicode="&#xf9;" horiz-adv-x="1239" d="M172 381v827h123v-823q0 -142 82 -216.5t241 -74.5q160 0 243 74t83 217v823h123v-827q0 -194 -113 -300t-336 -106q-221 0 -333.5 106.5t-112.5 299.5zM395 1653h162l150 -291h-101z" />
<glyph unicode="&#xfa;" horiz-adv-x="1239" d="M172 381v827h123v-823q0 -142 82 -216.5t241 -74.5q160 0 243 74t83 217v823h123v-827q0 -194 -113 -300t-336 -106q-221 0 -333.5 106.5t-112.5 299.5zM518 1362l164 291h164l-225 -291h-103z" />
<glyph unicode="&#xfb;" horiz-adv-x="1239" d="M172 381v827h123v-823q0 -142 82 -216.5t241 -74.5q160 0 243 74t83 217v823h123v-827q0 -194 -113 -300t-336 -106q-221 0 -333.5 106.5t-112.5 299.5zM348 1362l215 291h115l219 -291h-104l-172 231l-168 -231h-105z" />
<glyph unicode="&#xfc;" horiz-adv-x="1239" d="M172 381v827h123v-823q0 -142 82 -216.5t241 -74.5q160 0 243 74t83 217v823h123v-827q0 -194 -113 -300t-336 -106q-221 0 -333.5 106.5t-112.5 299.5zM395 1548q0 37 18.5 58.5t53.5 21.5q72 0 72 -80q0 -78 -72 -78q-36 0 -54 18t-18 60zM700 1548q0 37 18.5 58.5 t53.5 21.5q72 0 72 -80q0 -78 -72 -78q-36 0 -54 18t-18 60z" />
<glyph unicode="&#xfd;" horiz-adv-x="1290" d="M86 1208h150l389 -944l61 -153h6l49 157l324 940h137l-461 -1253q-59 -150 -138 -211t-193 -61q-103 0 -177 38l17 101q64 -37 139 -37q77 0 129.5 39t95.5 137l9 27zM530 1362l164 291h164l-225 -291h-103z" />
<glyph unicode="&#xfe;" horiz-adv-x="1286" d="M207 -295v1925l129 8v-401l-2 -164l4 -2q67 75 164.5 116.5t214.5 41.5q89 0 157.5 -19.5t125 -64t93 -116t56.5 -177.5t20 -246q0 -333 -120 -482t-351 -149q-234 0 -360 152l-4 -2l2 -166v-254h-129zM336 262q44 -76 128.5 -126t203.5 -50q86 0 149.5 23.5t115 80.5 t77.5 161t26 255q0 146 -23 245t-70 155.5t-110 80t-153 23.5q-229 0 -344 -168v-680z" />
<glyph unicode="&#xff;" horiz-adv-x="1290" d="M86 1208h150l389 -944l61 -153h6l49 157l324 940h137l-461 -1253q-59 -150 -138 -211t-193 -61q-103 0 -177 38l17 101q64 -37 139 -37q77 0 129.5 39t95.5 137l9 27zM422 1548q0 37 18.5 58.5t53.5 21.5q71 0 71 -80q0 -78 -71 -78q-36 0 -54 18t-18 60zM727 1548 q0 37 18.5 58.5t53.5 21.5q71 0 71 -80q0 -78 -71 -78q-36 0 -54 18t-18 60z" />
<glyph unicode="&#x152;" horiz-adv-x="2273" d="M143 768q0 427 137 610t455 183q380 0 490 -252h6v227h893l4 -127h-774v-547h669v-114h-669v-621h813l-6 -127h-930v240l-6 2q-117 -271 -490 -271q-317 0 -454.5 185t-137.5 612zM283 768q0 -194 25.5 -322t85 -205.5t146.5 -109t218 -31.5q130 0 215.5 31.5 t142.5 109.5t81 205t24 322q0 260 -46.5 404t-145 203t-273.5 59q-105 0 -179.5 -20t-132.5 -65.5t-92.5 -123t-51.5 -189.5t-17 -268z" />
<glyph unicode="&#x153;" horiz-adv-x="2072" d="M137 602q0 332 120.5 479.5t379.5 147.5q176 0 285.5 -64.5t156.5 -199.5h6q93 264 416 264q211 0 335 -137.5t124 -419.5q0 -30 -4 -62h-809q4 -193 50 -306.5t135.5 -162.5t236.5 -49q169 0 332 88l18 -110q-167 -95 -363 -95q-195 0 -306 69.5t-160 223.5h-7 q-46 -157 -156.5 -226t-289.5 -69q-261 0 -380.5 146.5t-119.5 482.5zM262 602q0 -282 89 -401t294 -119q204 0 289.5 118.5t85.5 401.5q0 281 -85.5 398.5t-289.5 117.5q-205 0 -294 -118t-89 -398zM1145 698h698q0 217 -93.5 318.5t-250.5 101.5q-175 0 -261.5 -104.5 t-92.5 -315.5z" />
<glyph unicode="&#x178;" horiz-adv-x="1343" d="M61 1536h158l381 -719l74 -147h6l72 147l378 719h152l-539 -997v-539h-137v539zM412 1731q0 75 71 75q70 0 70 -75q0 -76 -70 -76q-36 0 -53.5 18t-17.5 58zM797 1731q0 75 71 75q70 0 70 -75q0 -76 -70 -76q-36 0 -53.5 18t-17.5 58z" />
<glyph unicode="&#x2c6;" horiz-adv-x="808" d="M131 1362l215 291h115l219 -291h-105l-172 231l-167 -231h-105z" />
<glyph unicode="&#x2dc;" horiz-adv-x="808" d="M127 1415q11 101 53.5 160t106.5 59q40 0 78.5 -24t64 -52.5t58 -52.5t61.5 -24q65 0 92 131l68 -2q-11 -101 -54.5 -160t-107.5 -59q-39 0 -77 24t-63 52.5t-57.5 52.5t-60.5 24q-30 0 -55 -35.5t-39 -95.5z" />
<glyph unicode="&#x2000;" horiz-adv-x="938" />
<glyph unicode="&#x2001;" horiz-adv-x="1876" />
<glyph unicode="&#x2002;" horiz-adv-x="938" />
<glyph unicode="&#x2003;" horiz-adv-x="1876" />
<glyph unicode="&#x2004;" horiz-adv-x="625" />
<glyph unicode="&#x2005;" horiz-adv-x="469" />
<glyph unicode="&#x2006;" horiz-adv-x="312" />
<glyph unicode="&#x2007;" horiz-adv-x="312" />
<glyph unicode="&#x2008;" horiz-adv-x="234" />
<glyph unicode="&#x2009;" horiz-adv-x="375" />
<glyph unicode="&#x200a;" horiz-adv-x="104" />
<glyph unicode="&#x2010;" horiz-adv-x="847" d="M164 647v98h518v-98h-518z" />
<glyph unicode="&#x2011;" horiz-adv-x="847" d="M164 647v98h518v-98h-518z" />
<glyph unicode="&#x2012;" horiz-adv-x="847" d="M164 647v98h518v-98h-518z" />
<glyph unicode="&#x2013;" horiz-adv-x="1107" d="M164 647v98h780v-98h-780z" />
<glyph unicode="&#x2014;" horiz-adv-x="1462" d="M164 647v98h1134v-98h-1134z" />
<glyph unicode="&#x2018;" horiz-adv-x="452" d="M133 1335q0 45 41 159.5t84 193.5l49 -13l-53 -254q28 -8 48 -33t20 -55q0 -100 -93 -100q-96 0 -96 102z" />
<glyph unicode="&#x2019;" horiz-adv-x="454" d="M131 1534q0 46 23 73t71 27q97 0 97 -102q0 -44 -42 -158t-85 -194l-48 12l54 254q-30 8 -50 33t-20 55z" />
<glyph unicode="&#x201a;" horiz-adv-x="454" d="M131 68q0 46 23 73t71 27q97 0 97 -102q0 -44 -42 -158.5t-85 -194.5l-48 13l54 254q-30 8 -50 33t-20 55z" />
<glyph unicode="&#x201c;" horiz-adv-x="790" d="M133 1335q0 45 41 159.5t84 193.5l49 -13l-53 -254q28 -8 48 -33t20 -55q0 -100 -93 -100q-96 0 -96 102zM469 1335q0 44 42.5 158t86.5 195l45 -13l-53 -254q29 -8 49 -32.5t20 -55.5q0 -100 -94 -100q-48 0 -72 27.5t-24 74.5z" />
<glyph unicode="&#x201d;" horiz-adv-x="790" d="M131 1532q0 46 23 73t71 27q97 0 97 -102q0 -44 -42 -158t-85 -194l-48 12l54 254q-30 8 -50 33t-20 55zM467 1532q0 46 23 73t71 27q96 0 96 -102q0 -44 -42 -158t-85 -194l-47 12l54 254q-30 8 -50 33t-20 55z" />
<glyph unicode="&#x201e;" horiz-adv-x="790" d="M131 68q0 46 23 73t71 27q97 0 97 -102q0 -44 -42 -158.5t-85 -194.5l-48 13l54 254q-30 8 -50 33t-20 55zM469 68q0 46 23 73t71 27q96 0 96 -102q0 -44 -42 -158.5t-85 -194.5l-47 13l54 254q-30 8 -50 33t-20 55z" />
<glyph unicode="&#x2022;" horiz-adv-x="823" d="M158 659q0 128 61.5 191t188.5 63q247 0 247 -254q0 -131 -60.5 -193.5t-186.5 -62.5q-127 0 -188.5 63.5t-61.5 192.5z" />
<glyph unicode="&#x2026;" horiz-adv-x="1243" d="M152 76q0 94 98 94q94 0 94 -94q0 -96 -94 -96q-51 0 -74.5 22.5t-23.5 73.5zM537 76q0 94 98 94q94 0 94 -94q0 -96 -94 -96q-51 0 -74.5 22.5t-23.5 73.5zM899 76q0 94 98 94q95 0 95 -94q0 -96 -95 -96q-51 0 -74.5 22.5t-23.5 73.5z" />
<glyph unicode="&#x202f;" horiz-adv-x="375" />
<glyph unicode="&#x2039;" horiz-adv-x="841" d="M111 668v14l569 369v-109l-432 -268l432 -266v-111z" />
<glyph unicode="&#x203a;" horiz-adv-x="841" d="M162 297v111l432 266l-432 268v109l569 -369v-14z" />
<glyph unicode="&#x205f;" horiz-adv-x="469" />
<glyph unicode="&#x20ac;" horiz-adv-x="1406" d="M76 612v86h182q-2 31 -2 97v49h-180v90h186q28 301 186 458.5t437 157.5q106 0 206 -21.5t166 -58.5l-28 -108q-82 36 -155.5 52t-170.5 16q-456 0 -512 -496h692l-22 -90h-678v-60q0 -59 2 -86h619l-23 -86h-590q27 -271 150.5 -392.5t357.5 -121.5q202 0 381 111 l14 -107q-78 -55 -189.5 -86.5t-230.5 -31.5q-292 0 -438 152t-174 476h-186z" />
<glyph unicode="&#x2122;" horiz-adv-x="1325" d="M80 1513v74h440v-74h-180v-479h-78v479h-182zM612 1034v553h105l131 -307l63 -152h7l61 152l133 307h96v-553h-67v299l4 166l-6 2l-64 -155l-133 -312h-59l-135 314l-64 153l-4 -2l2 -166v-299h-70z" />
<glyph unicode="&#x25fc;" horiz-adv-x="1208" d="M0 0v1208h1208v-1208h-1208z" />
</font>
</defs>
</svg>
